Verified torrent Vishwaroopam 2 (2018) Hindi (Cleaned) HDRip x264 AAC by Full4movies


    Seeders : 0      Leechers : 0

Warning! Do not Download Torrents Without a VPN!
Your IP Address is 185.81.128.184.   And Location is Latvia,
Your Internet Provider and Government can track your torrent Activity!  Hide your IP ADDRESS with a VPN!
We Strongly Recommend Using Best Cheapest VPN to Anonymize your Torrenting.

Note :

Please Update (Trackers Info) Before Start Torrents Downloading to See Updated Seeders And Leechers for Batter Download Speed.

Trackers List

Tracker NameLast CheckStatusSeedersLeechers




Torrent File Content (1 file)


     Vishwaroopam 2 (2018) Hindi (Cleaned) HDRip x264 AAC by Full4movies.mkv -
671.22 MB



Description



http://extraimage.net/images/2018/09/14/d781f0c97c6dd675b373446b06080861.jpg


General
Complete name : Vishwaroopam 2 (2018) Hindi (Cleaned) HDRip x264 AAC by Full4movies.mkv
Format : Matroska
Format version : Version 4 / Version 2
File size : 671 MiB
Duration : 2 h 24 min
Overall bit rate : 651 kb/s
Movie name : www.Full4movies.co
Encoded date : UTC 2018-09-13 18:05:29
Writing application : mkvmerge v8.1.0 ('Psychedelic Postcard') 32bit
Writing library : libebml v1.3.1 + libmatroska v1.4.2

Video
ID : 1
Format : AVC
Format/Info : Advanced Video Codec
Format profile : [email protected]
Format settings, CABAC : Yes
Format settings, RefFrames : 4 frames
Codec ID : V_MPEG4/ISO/AVC
Duration : 2 h 24 min
Bit rate : 588 kb/s
Width : 640 pixels
Height : 272 pixels
Display aspect ratio : 2.35:1
Frame rate mode : Variable
Frame rate : 29.970 (30000/1001) FPS
Color space : YUV
Chroma subsampling : 4:2:0
Bit depth : 8 bits
Scan type : Progressive
Bits/(Pixel*Frame) : 0.113
Stream size : 601 MiB (90%)
Writing library : x264 core 148 r2744 b97ae06
Language : English
Default : Yes
Forced : No

Audio
ID : 2
Format : AAC
Format/Info : Advanced Audio Codec
Format profile : LC
Codec ID : A_AAC
Duration : 2 h 24 min
Bit rate : 64.4 kb/s
Channel(s) : 2 channels
Channel positions : Front: L R
Sampling rate : 48.0 kHz
Frame rate : 46.875 FPS (1024 SPF)
Compression mode : Lossy
Delay relative to video : -21 ms
Stream size : 66.4 MiB (10%)
Language : English
Default : Yes
Forced : No

Screen Shoots
http://extraimage.net/images/2018/09/14/cf14695b34efacf956c8413025a5b5c4.jpg

Related torrents

Torrent NameAddedSizeSeedLeechHealth
Verified torrent
Last Month - in Movies682.93 MB00
Verified torrent
4 months ago - in Movies1.43 GB10
Verified torrent
4 months ago - in Movies673.14 MB233
Verified torrent
Last Month - in Movies760.07 MB00
Verified torrent
10 days ago - in Movies567.15 MB00
Verified torrent
Last Month - in Movies385.3 MB00

Note :

Feel free to post any comments about this torrent, including links to Subtitle, samples, screenshots, or any other relevant information. Please Dont Download anything from Comments, And Links to Streaming Sites like Watch Online Vishwaroopam 2 (2018) Hindi (Cleaned) HDRip x264 AAC by Full4movies Full Movie, Fmovies, 123Movies, Putlocker, Netflix, etc.

Comments (0 Comments)




Please login or create a FREE account to post comments

Latest Searches