Verified torrent The Nun 2018 720p TS x264 AAC [MW]


    Seeders : 1896      Leechers : 554

Hash :A02513338BF5DF9FD1EE6BB1B5600755F499C3A4
Added :9 days ago by MovieFreakVerified torrent uploader in Movies
Size :1.14 GB
Stream :Watch Full Movie Online @ Movie4u
Share :


The Nun 2018 720p TS x264 AAC [MW]
Download Direct And Anonymously







Warning! Do not Download Torrents Without a VPN!
Your IP Address is 185.81.128.184.   And Location is Latvia,
Your Internet Provider and Government can track your torrent Activity!  Hide your IP ADDRESS with a VPN!
We Strongly Recommend Using Best Cheapest VPN to Anonymize your Torrenting.

Note :

Please Update (Trackers Info) Before Start Torrents Downloading to See Updated Seeders And Leechers for Batter Download Speed.

Trackers List

Tracker NameLast CheckStatusSeedersLeechers
udp://tracker.leechers-paradise.org:6969/announce5 hours agosuccess1,896554
udp://tracker.coppersurfer.tk:80/announce5 hours agosuccess1,873538
udp://tracker.pirateparty.gr:6969/announce5 hours agosuccess1,873538
udp://tracker.coppersurfer.tk:6969/announce5 hours agosuccess1,873538
udp://tracker.opentrackr.org:1337/announce5 hours agosuccess1,232385
udp://9.rarbg.to:2770/announce5 hours agosuccess1,060364
udp://9.rarbg.me:2770/announce5 hours agosuccess1,059364
udp://9.rarbg.me:2710/announce5 hours agosuccess1,059364
udp://9.rarbg.to:2740/announce5 hours agosuccess1,059364
udp://9.rarbg.me:2740/announce5 hours agosuccess1,059364
udp://9.rarbg.to:2730/announce5 hours agosuccess1,059364
udp://9.rarbg.to:2710/announce5 hours agosuccess1,059364
udp://9.rarbg.to:2720/announce5 hours agosuccess1,059364
udp://tracker.internetwarriors.net:1337/announce5 hours agosuccess1,040370
udp://tracker.tiny-vps.com:6969/announce5 hours agosuccess750259
udp://open.stealth.si:80/announce5 hours agosuccess708246
udp://tracker.vanitycore.co:6969/announce5 hours agosuccess634230
udp://thetracker.org:80/announce5 hours agosuccess495216
udp://ipv4.tracker.harry.lu:80/announce5 hours agosuccess451259
udp://tracker.port443.xyz:6969/announce5 hours agosuccess447215
http://tracker3.itzmx.com:8080/announce5 hours agosuccess11531
udp://exodus.desync.com:6969/announce5 hours agosuccess9039
udp://tracker.torrent.eu.org:451/announce5 hours agosuccess8238
udp://tracker.torrent.eu.org:4515 hours agosuccess8238
udp://ipv6.tracker.harry.lu:80/announce5 hours agosuccess226
udp://tracker.justseed.it:1337/announce5 hours agosuccess00




Torrent File Content (1 file)


The Nun 2018 720p TS x264 AAC [MW]
     The Nun 2018 720p TS x264 AAC [MW].mkv -
1.14 GB



Description





[url=http://pichub.site/image/Dgv6N]
http://pichub.site/images/2018/09/07/nun.md.jpg
[/url]

General
Format : Matroska
Format version : Version 4 / Version 2
File size : 1.14 GiB
Duration : 1 h 34 min
Overall bit rate : 1 733 kb/s

Video
ID : 1
Format : AVC
Format/Info : Advanced Video Codec
Format profile : [email protected]
Format settings : CABAC / 4 Ref Frames
Format settings, CABAC : Yes
Format settings, RefFrames : 4 frames
Codec ID : V_MPEG4/ISO/AVC
Duration : 1 h 34 min
Bit rate : 1 500 kb/s
Width : 1 280 pixels
Height : 532 pixels
Display aspect ratio : 2.40:1
Frame rate mode : Constant
Frame rate : 29.970 (30000/1001) FPS
Color space : YUV
Chroma subsampling : 4:2:0
Bit depth : 8 bits
Scan type : Progressive
Bits/(Pixel*Frame) : 0.073
Stream size : 1 013 MiB (87%)
Writing library : x264 core 155 r2901 7d0ff22
Default : Yes
Forced : No

Audio
ID : 2
Format : AAC
Format/Info : Advanced Audio Codec
Format profile : LC
Codec ID : A_AAC-2
Duration : 1 h 34 min
Bit rate : 224 kb/s
Channel(s) : 2 channels
Channel positions : Front: L R
Sampling rate : 48.0 kHz
Frame rate : 46.875 FPS (1024 SPF)
Compression mode : Lossy
Stream size : 151 MiB (13%)
Language : English
Default : Yes
Forced : No


Click To Enlarge Image

[url=http://pichub.site/image/DT4GI]
http://pichub.site/images/2018/09/10/00_09_27.md.jpg
[/url]
[url=http://pichub.site/image/DHqdg]
http://pichub.site/images/2018/09/10/00_16_17.md.jpg
[/url]
[url=http://pichub.site/image/DTMI8]
http://pichub.site/images/2018/09/10/00_21_16.md.jpg
[/url]
[url=http://pichub.site/image/DTf3X]
http://pichub.site/images/2018/09/10/01_27_59.md.jpg
[/url]
[url=http://pichub.site/image/DTal5]
http://pichub.site/images/2018/09/10/01_30_05.md.jpg
[/url]
[url=http://pichub.site/image/DTYAJ]
http://pichub.site/images/2018/09/10/01_30_53.md.jpg
[/url]
[url=http://pichub.site/image/DTO4h]
http://pichub.site/images/2018/09/10/01_31_24.md.jpg
[/url]

Related torrents

Torrent NameAddedSizeSeedLeechHealth
Verified torrent
2 months ago - in Movies1007.29 MB388
Verified torrent
Last Month - in Movies948.06 MB6545
Verified torrent
4 months ago - in Movies1.38 GB4911
Verified torrent
2 months ago - in Movies1.03 GB199
Verified torrent
5 months ago - in Movies828.88 MB50
Verified torrent
5 months ago - in Movies1.07 GB18470

Note :

Feel free to post any comments about this torrent, including links to Subtitle, samples, screenshots, or any other relevant information. Please Dont Download anything from Comments, And Links to Streaming Sites like Watch Online The Nun 2018 720p TS x264 AAC [MW] Full Movie, Fmovies, 123Movies, Putlocker, Netflix, etc.

Comments (0 Comments)




Please login or create a FREE account to post comments

Latest Searches