THE predator - upgrade [2018] ENGLISH HDCAM - 720P - X264 - AAC -


    Seeders : 67      Leechers : 33

Hash :25F3788617743F2263FB4E5CF547C14935102219
Added :10 days ago in Movies
Size :1.12 GB
Stream :Watch Full Movie Online @ Movie4u
Share :








Warning! Do not Download Torrents Without a VPN!
Your IP Address is 185.81.128.184.   And Location is Latvia,
Your Internet Provider and Government can track your torrent Activity!  Hide your IP ADDRESS with a VPN!
We Strongly Recommend Using Best Cheapest VPN to Anonymize your Torrenting.

Note :

Please Update (Trackers Info) Before Start Torrents Downloading to See Updated Seeders And Leechers for Batter Download Speed.

Trackers List

Tracker NameLast CheckStatusSeedersLeechers
udp://thetracker.org:80/announce10 days agosuccess6730
udp://bt.xxx-tracker.com:2710/announce10 days agosuccess5832
udp://tracker.tiny-vps.com:6969/announce10 days agosuccess5333
udp://tracker.coppersurfer.tk:6969/announce10 days agosuccess4432
udp://9.rarbg.to:2770/announce10 days agosuccess4323
http://share.camoe.cn:8080/announce10 days agosuccess00




Torrent File Content (1 file)


     [www.Movcr.com]Predator - Upgrade[2108] - HDCAM English - 720p -x264 - AAC - 1GB[movcr].mp4 -
1.12 GB



Description




Video
ID : 1
Format : AVC
Format/Info : Advanced Video Codec
Format profile : [email protected]
Format settings : CABAC / 2 Ref Frames
Format settings, CABAC : Yes
Format settings, ReFrames : 2 frames
Codec ID : avc1
Codec ID/Info : Advanced Video Coding
Duration : 1 h 40 min
Bit rate mode : Variable
Bit rate : 1 431 kb/s
Maximum bit rate : 1 750 kb/s
Width : 1 280 pixels
Height : 536 pixels
Display aspect ratio : 2.40:1
Frame rate mode : Constant
Frame rate : 29.970 (30000/1001) FPS
Color space : YUV
Chroma subsampling : 4:2:0
Bit depth : 8 bits
Scan type : Progressive
Bits/(Pixel*Frame) : 0.070
Stream size : 1.01 GiB (90%)
Tagged date : UTC 2018-09-13 21:50:38

Audio
ID : 2
Format : AAC
Format/Info : Advanced Audio Codec
Format profile : LC
Codec ID : mp4a-40-2
Duration : 1 h 40 min
Source duration : 1 h 40 min
Source_Duration_LastFrame : -11 ms
Bit rate mode : Constant
Bit rate : 154 kb/s
Channel(s) : 2 channels
Channel positions : Front: L R
Sampling rate : 44.1 kHz
Frame rate : 43.066 FPS (1024 SPF)
Compression mode : Lossy
Stream size : 111 MiB (10%)
Source stream size : 111 MiB (10%)


Related torrents

Torrent NameAddedSizeSeedLeechHealth
3 months ago - in Movies2.44 GB00
3 months ago - in Movies2.44 GB00
2 months ago - in Movies920.53 MB237
2 months ago - in Movies920.53 MB12
3 months ago - in Movies796.58 MB62
3 months ago - in Movies795.88 MB00

Note :

Feel free to post any comments about this torrent, including links to Subtitle, samples, screenshots, or any other relevant information. Please Dont Download anything from Comments, And Links to Streaming Sites like Watch Online THE predator - upgrade [2018] ENGLISH HDCAM - 720P - X264 - AAC - Full Movie, Fmovies, 123Movies, Putlocker, Netflix, etc.

Comments (0 Comments)




Please login or create a FREE account to post comments

Latest Searches