Verified torrent Solo A Star Wars Story 2018 720p BluRay x264 ESub [MW]


    Seeders : 768      Leechers : 142

Hash :B92F9EFAC0F5E91F951B973CE4128A627718A51B
Added :12 days ago by MovieFreakVerified torrent uploader in Movies
Size :1.23 GB
Stream :Watch Full Movie Online @ Movie4u
Share :








Warning! Do not Download Torrents Without a VPN!
Your IP Address is 185.81.128.184.   And Location is Latvia,
Your Internet Provider and Government can track your torrent Activity!  Hide your IP ADDRESS with a VPN!
We Strongly Recommend Using Best Cheapest VPN to Anonymize your Torrenting.

Note :

Please Update (Trackers Info) Before Start Torrents Downloading to See Updated Seeders And Leechers for Batter Download Speed.

Trackers List

Tracker NameLast CheckStatusSeedersLeechers
udp://tracker.pirateparty.gr:6969/announce10 days agosuccess768142
udp://tracker.coppersurfer.tk:80/announce10 days agosuccess768142
udp://tracker.coppersurfer.tk:6969/announce10 days agosuccess768142
udp://tracker.leechers-paradise.org:6969/announce10 days agosuccess681131
udp://eddie4.nl:6969/announce10 days agosuccess681131
udp://shadowshq.yi.org:6969/announce10 days agosuccess681131
udp://tracker.opentrackr.org:1337/announce10 days agosuccess603117
udp://9.rarbg.to:2710/announce10 days agosuccess595117
udp://9.rarbg.to:2720/announce10 days agosuccess595117
udp://9.rarbg.to:2730/announce10 days agosuccess595117
udp://9.rarbg.to:2740/announce10 days agosuccess595117
udp://9.rarbg.me:2770/announce10 days agosuccess595117
udp://9.rarbg.me:2710/announce10 days agosuccess595117
udp://9.rarbg.me:2740/announce10 days agosuccess595117
udp://9.rarbg.me:2730/announce10 days agosuccess595117
udp://tracker.vanitycore.co:6969/announce10 days agosuccess593116
udp://tracker.tiny-vps.com:6969/announce10 days agosuccess550103
udp://tracker.internetwarriors.net:1337/announce10 days agosuccess537107
udp://thetracker.org:80/announce10 days agosuccess186
udp://tracker.port443.xyz:6969/announce10 days agosuccess129
udp://tracker.mg64.net:6969/announce10 days agosuccess13
http://tracker.vanitycore.co:6969/announce12 days agosuccess14
http://9.rarbg.me:2800/announce12 days agosuccess16
http://public.popcorn-tracker.org:6969/announce12 days agosuccess14
http://9.rarbg.to:2720/announce12 days agosuccess16
udp://exodus.desync.com:6969/announce10 days agosuccess00
udp://tracker.justseed.it:1337/announce10 days agosuccess00
udp://tracker.torrent.eu.org:451/announce10 days agosuccess00
udp://tracker.torrent.eu.org:45110 days agosuccess00




Torrent File Content (1 file)


Solo A Star Wars Story 2018 720p BluRay x264 ESub [MW]
     Solo A Star Wars Story 2018 720p BluRay x264 ESub [MW].mkv -
1.23 GB



Description




[url=http://pichub.site/image/Dsjhk]
http://pichub.site/images/2018/09/10/solo.md.jpg
[/url]


General
Format : Matroska
Format version : Version 4 / Version 2
File size : 1.23 GiB
Duration : 2 h 14 min
Overall bit rate : 1 306 kb/s

Video
ID : 1
Format : AVC
Format/Info : Advanced Video Codec
Format profile : [email protected]
Format settings : CABAC / 4 Ref Frames
Format settings, CABAC : Yes
Format settings, RefFrames : 4 frames
Codec ID : V_MPEG4/ISO/AVC
Duration : 2 h 14 min
Bit rate : 1 200 kb/s
Width : 1 280 pixels
Height : 536 pixels
Display aspect ratio : 2.40:1
Frame rate mode : Constant
Frame rate : 23.976 (24000/1001) FPS
Color space : YUV
Chroma subsampling : 4:2:0
Bit depth : 8 bits
Scan type : Progressive
Bits/(Pixel*Frame) : 0.073
Stream size : 1.14 GiB (93%)
Writing library : x264 core 155 r2901 7d0ff22
Default : Yes
Forced : No

Audio
ID : 2
Format : AAC
Format/Info : Advanced Audio Codec
Format profile : HE-AAC / LC
Format settings : Explicit
Codec ID : A_AAC-2
Duration : 2 h 14 min
Bit rate : 96.0 kb/s
Channel(s) : 2 channels
Channel positions : Front: L R
Sampling rate : 48.0 kHz / 24.0 kHz
Frame rate : 23.438 FPS (1024 SPF)
Compression mode : Lossy
Stream size : 91.3 MiB (7%)
Language : English
Default : Yes
Forced : No

Text
ID : 3
Format : UTF-8
Codec ID : S_TEXT/UTF8
Codec ID/Info : UTF-8 Plain Text
Duration : 2 h 5 min
Bit rate : 56 b/s
Count of elements : 1957
Stream size : 51.9 KiB (0%)
Language : English
Default : Yes
Forced : No


Click To Enlarge Image

[url=http://pichub.site/image/Ds17X]
http://pichub.site/images/2018/09/10/00_29_51.md.jpg
[/url]
[url=http://pichub.site/image/Ds9N8]
http://pichub.site/images/2018/09/10/00_46_03.md.jpg
[/url]
[url=http://pichub.site/image/DsH1J]
http://pichub.site/images/2018/09/10/00_50_19.md.jpg
[/url]
[url=http://pichub.site/image/DsFO5]
http://pichub.site/images/2018/09/10/00_53_44.md.jpg
[/url]
[url=http://pichub.site/image/DsW6j]
http://pichub.site/images/2018/09/10/00_54_35.md.jpg
[/url]
[url=http://pichub.site/image/DsQBh]
http://pichub.site/images/2018/09/10/01_33_49.md.jpg
[/url]
[url=http://pichub.site/image/Dsefr]
http://pichub.site/images/2018/09/10/01_49_11.md.jpg
[/url]


Related torrents

Torrent NameAddedSizeSeedLeechHealth
Verified torrent
12 days ago - in Movies901.2 MB86139
Verified torrent
12 days ago - in Movies1.03 GB00
Verified torrent
12 days ago - in Movies1.63 GB00
Verified torrent
12 days ago - in Movies8.17 GB361116
3 months ago - in Movies1.18 GB3711
2 months ago - in Movies717.08 MB522

Note :

Feel free to post any comments about this torrent, including links to Subtitle, samples, screenshots, or any other relevant information. Please Dont Download anything from Comments, And Links to Streaming Sites like Watch Online Solo A Star Wars Story 2018 720p BluRay x264 ESub [MW] Full Movie, Fmovies, 123Movies, Putlocker, Netflix, etc.

Comments (0 Comments)




Please login or create a FREE account to post comments

Latest Searches