Verified torrent Mission Impossible - Fallout (2018) 720p HC HDRip x264 AAC by Full4movies


    Seeders : 0      Leechers : 0

Warning! Do not Download Torrents Without a VPN!
Your IP Address is 185.81.128.184.   And Location is Latvia,
Your Internet Provider and Government can track your torrent Activity!  Hide your IP ADDRESS with a VPN!
We Strongly Recommend Using Best Cheapest VPN to Anonymize your Torrenting.

Note :

Please Update (Trackers Info) Before Start Torrents Downloading to See Updated Seeders And Leechers for Batter Download Speed.

Trackers List

Tracker NameLast CheckStatusSeedersLeechers




Torrent File Content (1 file)


     Mission Impossible - Fallout (2018) 720p HC HDRip x264 AAC by Full4movies.mkv -
1.22 GB



Description



http://extraimage.net/images/2018/09/14/06e8fcec72a61e014bf0a6b491333427.jpg


General
Complete name : Mission Impossible - Fallout (2018) 720p HC HDRip x264 AAC by Full4movies.mkv
Format : Matroska
Format version : Version 4 / Version 2
File size : 1.22 GiB
Duration : 2 h 27 min
Overall bit rate : 1 183 kb/s
Movie name : www.Full4movies.co
Encoded date : UTC 2018-09-13 17:41:08
Writing application : mkvmerge v8.1.0 ('Psychedelic Postcard') 32bit
Writing library : libebml v1.3.1 + libmatroska v1.4.2

Video
ID : 1
Format : AVC
Format/Info : Advanced Video Codec
Format profile : [email protected]
Format settings, CABAC : Yes
Format settings, RefFrames : 4 frames
Codec ID : V_MPEG4/ISO/AVC
Duration : 2 h 27 min
Bit rate : 1 088 kb/s
Width : 1 280 pixels
Height : 544 pixels
Display aspect ratio : 2.35:1
Frame rate mode : Variable
Frame rate : 29.970 FPS
Color space : YUV
Chroma subsampling : 4:2:0
Bit depth : 8 bits
Scan type : Progressive
Bits/(Pixel*Frame) : 0.052
Stream size : 1.11 GiB (91%)
Writing library : x264 core 155 r2901 7d0ff22
Language : English
Default : Yes
Forced : No
Color range : Limited
Color primaries : BT.709
Transfer characteristics : BT.709
Matrix coefficients : BT.709

Audio
ID : 2
Format : AAC
Format/Info : Advanced Audio Codec
Format profile : LC
Codec ID : A_AAC
Duration : 2 h 27 min
Bit rate : 98.9 kb/s
Channel(s) : 2 channels
Channel positions : Front: L R
Sampling rate : 44.1 kHz
Frame rate : 43.066 FPS (1024 SPF)
Compression mode : Lossy
Stream size : 104 MiB (8%)
Language : English
Default : Yes
Forced : No

Screen Shoots
http://extraimage.net/images/2018/09/14/c704a6d110c3164a21e8fd8ebe3807b9.jpg

Related torrents

Torrent NameAddedSizeSeedLeechHealth
Verified torrent
5 days ago - in Movies1.13 GB404363
5 days ago - in Movies2.85 GB17
Verified torrent
5 days ago - in Movies1.23 GB00
Verified torrent
5 days ago - in Movies1.34 GB4925
Verified torrent
5 days ago - in Movies1.47 GB249186
Verified torrent
5 days ago - in Movies1.15 GB1,280429

Note :

Feel free to post any comments about this torrent, including links to Subtitle, samples, screenshots, or any other relevant information. Please Dont Download anything from Comments, And Links to Streaming Sites like Watch Online Mission Impossible - Fallout (2018) 720p HC HDRip x264 AAC by Full4movies Full Movie, Fmovies, 123Movies, Putlocker, Netflix, etc.

Comments (0 Comments)




Please login or create a FREE account to post comments

Latest Searches