Verified torrent MLA Ka Power (MLA) (2018) 720p Hindi Dubbed (Org) HDRip x264 AAC by Full4movies.mkv


    Seeders : 0      Leechers : 0

Warning! Do not Download Torrents Without a VPN!
Your IP Address is 185.81.128.184.   And Location is Latvia,
Your Internet Provider and Government can track your torrent Activity!  Hide your IP ADDRESS with a VPN!
We Strongly Recommend Using Best Cheapest VPN to Anonymize your Torrenting.

Note :

Please Update (Trackers Info) Before Start Torrents Downloading to See Updated Seeders And Leechers for Batter Download Speed.

Trackers List

Tracker NameLast CheckStatusSeedersLeechers




Torrent File Content (1 file)


     MLA Ka Power (MLA) (2018) 720p Hindi Dubbed (Org) HDRip x264 AAC by Full4movies.mkv -
1.25 GB



Description



http://extraimage.net/images/2018/09/14/38265b93a071f02f89ac2a1cf0dec58c.jpg


General
Complete name : MLA Ka Power (MLA) (2018) 720p Hindi Dubbed (Org) HDRip x264 AAC by Full4movies.mkv
Format : Matroska
Format version : Version 4 / Version 2
File size : 1.25 GiB
Duration : 2 h 6 min
Overall bit rate : 1 414 kb/s
Movie name : www.Full4movies.co
Encoded date : UTC 2018-09-13 17:41:51
Writing application : mkvmerge v8.1.0 ('Psychedelic Postcard') 32bit
Writing library : libebml v1.3.1 + libmatroska v1.4.2

Video
ID : 1
Format : AVC
Format/Info : Advanced Video Codec
Format profile : [email protected]
Format settings, CABAC : Yes
Format settings, RefFrames : 5 frames
Codec ID : V_MPEG4/ISO/AVC
Duration : 2 h 6 min
Bit rate : 1 280 kb/s
Width : 1 280 pixels
Height : 720 pixels
Display aspect ratio : 16:9
Frame rate mode : Constant
Frame rate : 24.000 FPS
Color space : YUV
Chroma subsampling : 4:2:0
Bit depth : 8 bits
Scan type : Progressive
Bits/(Pixel*Frame) : 0.058
Stream size : 1.13 GiB (91%)
Writing library : x264 core 148 r2795 aaa9aa8
Default : Yes
Forced : No

Audio
ID : 2
Format : AAC
Format/Info : Advanced Audio Codec
Format profile : LC
Codec ID : A_AAC
Duration : 2 h 6 min
Bit rate : 126 kb/s
Channel(s) : 2 channels
Channel positions : Front: L R
Sampling rate : 44.1 kHz
Frame rate : 43.066 FPS (1024 SPF)
Compression mode : Lossy
Stream size : 113 MiB (9%)
Language : English
Default : Yes
Forced : No

Screen Shoots
http://extraimage.net/images/2018/09/14/342db7737965a174caebd28769dac9f4.jpg

Related torrents

Torrent NameAddedSizeSeedLeechHealth
Verified torrent
28 days ago - in Movies1012 MB00
Verified torrent
Last Month - in Movies1.16 GB00
Verified torrent
2 months ago - in Movies961.66 MB2923
Verified torrent
2 months ago - in Movies1.15 GB205
Verified torrent
2 months ago - in Movies899.73 MB32
Verified torrent
2 months ago - in Movies1.18 GB32

Note :

Feel free to post any comments about this torrent, including links to Subtitle, samples, screenshots, or any other relevant information. Please Dont Download anything from Comments, And Links to Streaming Sites like Watch Online MLA Ka Power (MLA) (2018) 720p Hindi Dubbed (Org) HDRip x264 AAC by Full4movies.mkv Full Movie, Fmovies, 123Movies, Putlocker, Netflix, etc.

Comments (0 Comments)




Please login or create a FREE account to post comments

Latest Searches