Verified torrent Furlough 2018 1080p BluRay x264 DTS [MW]


    Seeders : 2      Leechers : 0

Hash :82AA17407B5D40604B5311B9ECF2F9F7A09D5F3F
Added :10 days ago by MovieFreakVerified torrent uploader in Movies
Size :2.13 GB
Stream :Watch Full Movie Online @ Movie4u
Share :


Furlough 2018 1080p BluRay x264 DTS [MW]
Download Direct And Anonymously







Warning! Do not Download Torrents Without a VPN!
Your IP Address is 185.81.128.184.   And Location is Latvia,
Your Internet Provider and Government can track your torrent Activity!  Hide your IP ADDRESS with a VPN!
We Strongly Recommend Using Best Cheapest VPN to Anonymize your Torrenting.

Note :

Please Update (Trackers Info) Before Start Torrents Downloading to See Updated Seeders And Leechers for Batter Download Speed.

Trackers List

Tracker NameLast CheckStatusSeedersLeechers
http://tracker.vanitycore.co:6969/announce10 days agosuccess20
http://9.rarbg.me:2800/announce10 days agosuccess20
http://public.popcorn-tracker.org:6969/announce10 days agosuccess20
http://9.rarbg.to:2720/announce10 days agosuccess20




Torrent File Content (1 file)


Furlough 2018 1080p BluRay x264 DTS [MW]
     Furlough 2018 1080p BluRay x264 DTS [MW].mkv -
2.13 GB



Description




[url=http://pichub.site/image/EIQfD]
http://pichub.site/images/2018/09/14/Fur.md.jpg
[/url]


General
Format : Matroska
Format version : Version 4 / Version 2
File size : 2.13 GiB
Duration : 1 h 23 min
Overall bit rate : 3 662 kb/s

Video
ID : 1
Format : AVC
Format/Info : Advanced Video Codec
Format profile : [email protected]
Format settings : CABAC / 4 Ref Frames
Format settings, CABAC : Yes
Format settings, RefFrames : 4 frames
Codec ID : V_MPEG4/ISO/AVC
Duration : 1 h 23 min
Bit rate : 3 000 kb/s
Width : 1 920 pixels
Height : 800 pixels
Display aspect ratio : 2.40:1
Frame rate mode : Constant
Frame rate : 23.976 (24000/1001) FPS
Color space : YUV
Chroma subsampling : 4:2:0
Bit depth : 8 bits
Scan type : Progressive
Bits/(Pixel*Frame) : 0.081
Stream size : 1.69 GiB (79%)
Writing library : x264 core 155 r2901 7d0ff22
Default : Yes
Forced : No

Audio
ID : 2
Format : DTS
Format/Info : Digital Theater Systems
Codec ID : A_DTS
Duration : 1 h 23 min
Bit rate mode : Constant
Bit rate : 756 kb/s
Channel(s) : 6 channels
Channel positions : Front: L C R, Side: L R, LFE
Sampling rate : 48.0 kHz
Frame rate : 93.750 FPS (512 SPF)
Bit depth : 16 bits
Compression mode : Lossy
Stream size : 451 MiB (21%)
Language : English
Default : Yes
Forced : No

Text
ID : 3
Format : VobSub
Muxing mode : zlib
Codec ID : S_VOBSUB
Codec ID/Info : Picture based subtitle format used on DVDs
Duration : 1 h 22 min
Bit rate : 5 873 b/s
Count of elements : 1498
Stream size : 3.45 MiB (0%)
Language : English
Default : Yes
Forced : No

Menu
00:00:00.000 : en:00:00:00.000
00:08:37.600 : en:00:08:37.600
00:17:15.034 : en:00:17:15.034
00:22:03.531 : en:00:22:03.531
00:24:20.834 : en:00:24:20.834
00:30:01.383 : en:00:30:01.383
00:31:43.819 : en:00:31:43.819
00:41:49.340 : en:00:41:49.340
00:48:35.246 : en:00:48:35.246
00:51:38.721 : en:00:51:38.721
00:58:25.794 : en:00:58:25.794
01:13:32.825 : en:01:13:32.825


Click To Enlarge Image

[url=http://pichub.site/image/EIWCZ]
http://pichub.site/images/2018/09/14/00_03_24.md.jpg
[/url]
[url=http://pichub.site/image/EIbrg]
http://pichub.site/images/2018/09/14/00_05_18.md.jpg
[/url]
[url=http://pichub.site/image/EIeWI]
http://pichub.site/images/2018/09/14/00_16_16.md.jpg
[/url]
[url=http://pichub.site/image/EIq7X]
http://pichub.site/images/2018/09/14/00_37_36.md.jpg
[/url]
[url=http://pichub.site/image/EO4N8]
http://pichub.site/images/2018/09/14/00_40_38.md.jpg
[/url]
[url=http://pichub.site/image/EOf1J]
http://pichub.site/images/2018/09/14/01_11_46.md.jpg
[/url]


Related torrents

Torrent NameAddedSizeSeedLeechHealth
2 months ago - in Movies2 GB186
Verified torrent
2 months ago - in Movies2.85 GB10621
Verified torrent
2 months ago - in Movies2.44 GB85
Verified torrent
2 months ago - in Movies2.65 GB52
Verified torrent
3 months ago - in Movies2.63 GB164
Verified torrent
3 months ago - in Movies2.96 GB00

Note :

Feel free to post any comments about this torrent, including links to Subtitle, samples, screenshots, or any other relevant information. Please Dont Download anything from Comments, And Links to Streaming Sites like Watch Online Furlough 2018 1080p BluRay x264 DTS [MW] Full Movie, Fmovies, 123Movies, Putlocker, Netflix, etc.

Comments (0 Comments)




Please login or create a FREE account to post comments

Latest Searches