Verified torrent Cargo 2017 1080p BluRay x264 DTS [MW]


    Seeders : 3      Leechers : 1

Hash :A4036E40F3B20B0735BA02B191A04A6CD272296D
Added :4 days ago by MovieFreakVerified torrent uploader in Movies
Size :2.62 GB
Stream :Watch Full Movie Online @ Movie4u
Share :


Cargo 2017 1080p BluRay x264 DTS [MW]
Download Direct And Anonymously







Warning! Do not Download Torrents Without a VPN!
Your IP Address is 185.81.128.184.   And Location is Latvia,
Your Internet Provider and Government can track your torrent Activity!  Hide your IP ADDRESS with a VPN!
We Strongly Recommend Using Best Cheapest VPN to Anonymize your Torrenting.

Note :

Please Update (Trackers Info) Before Start Torrents Downloading to See Updated Seeders And Leechers for Batter Download Speed.

Trackers List

Tracker NameLast CheckStatusSeedersLeechers
http://9.rarbg.me:2800/announce4 days agosuccess30
http://9.rarbg.to:2720/announce4 days agosuccess30
http://tracker.vanitycore.co:6969/announce4 days agosuccess11
http://public.popcorn-tracker.org:6969/announce4 days agosuccess11




Torrent File Content (1 file)


Cargo 2017 1080p BluRay x264 DTS [MW]
     Cargo 2017 1080p BluRay x264 DTS [MW].mkv -
2.62 GB



Description




[url=http://pichub.site/image/EI26Y]
http://pichub.site/images/2018/09/14/car.md.jpg
[/url]


General
Format : Matroska
Format version : Version 4 / Version 2
File size : 2.62 GiB
Duration : 1 h 43 min
Overall bit rate : 3 619 kb/s

Video
ID : 1
Format : AVC
Format/Info : Advanced Video Codec
Format profile : [email protected]
Format settings : CABAC / 4 Ref Frames
Format settings, CABAC : Yes
Format settings, RefFrames : 4 frames
Codec ID : V_MPEG4/ISO/AVC
Duration : 1 h 43 min
Bit rate : 3 000 kb/s
Width : 1 920 pixels
Height : 858 pixels
Display aspect ratio : 2.25:1
Frame rate mode : Constant
Frame rate : 23.976 (24000/1001) FPS
Color space : YUV
Chroma subsampling : 4:2:0
Bit depth : 8 bits
Scan type : Progressive
Bits/(Pixel*Frame) : 0.076
Stream size : 2.07 GiB (79%)
Writing library : x264 core 155 r2901 7d0ff22
Default : Yes
Forced : No

Audio
ID : 2
Format : DTS
Format/Info : Digital Theater Systems
Codec ID : A_DTS
Duration : 1 h 43 min
Bit rate mode : Constant
Bit rate : 756 kb/s
Channel(s) : 6 channels
Channel positions : Front: L C R, Side: L R, LFE
Sampling rate : 48.0 kHz
Frame rate : 93.750 FPS (512 SPF)
Bit depth : 16 bits
Compression mode : Lossy
Stream size : 560 MiB (21%)
Language : English
Default : Yes
Forced : No

Text
ID : 3
Format : UTF-8
Codec ID : S_TEXT/UTF8
Codec ID/Info : UTF-8 Plain Text
Duration : 1 h 29 min
Bit rate : 27 b/s
Count of elements : 624
Stream size : 18.2 KiB (0%)
Language : English
Default : Yes
Forced : No

Menu
00:00:00.000 : en:Chapter 01
00:00:42.333 : en:Chapter 02
00:06:33.101 : en:Chapter 03
00:16:29.571 : en:Chapter 04
00:26:01.601 : en:Chapter 05
00:31:49.616 : en:Chapter 06
00:43:30.232 : en:Chapter 07
00:54:46.825 : en:Chapter 08
01:05:59.580 : en:Chapter 09
01:12:16.123 : en:Chapter 10
01:20:56.142 : en:Chapter 11
01:26:07.078 : en:Chapter 12
01:38:25.524 : en:Chapter 13


Click To Enlarge Image

[url=http://pichub.site/image/EIl46]
http://pichub.site/images/2018/09/14/00_04_15.md.jpg
[/url]
[url=http://pichub.site/image/EI6Ct]
http://pichub.site/images/2018/09/14/00_23_56.md.jpg
[/url]
[url=http://pichub.site/image/EIPr4]
http://pichub.site/images/2018/09/14/00_27_19.md.jpg
[/url]
[url=http://pichub.site/image/EIs7y]
http://pichub.site/images/2018/09/14/00_46_03.md.jpg
[/url]
[url=http://pichub.site/image/EIXQp]
http://pichub.site/images/2018/09/14/01_03_50.md.jpg
[/url]
[url=http://pichub.site/image/EI3Gb]
http://pichub.site/images/2018/09/14/01_25_57.md.jpg
[/url]


Related torrents

Torrent NameAddedSizeSeedLeechHealth
Verified torrent
12 days ago - in Movies44.33 GB3830
12 days ago - in Movies10.76 GB6154
13 days ago - in Movies9.42 GB540
Verified torrent
9 days ago - in Movies2.12 GB2718
Verified torrent
9 days ago - in Movies2.33 GB1116

Note :

Feel free to post any comments about this torrent, including links to Subtitle, samples, screenshots, or any other relevant information. Please Dont Download anything from Comments, And Links to Streaming Sites like Watch Online Cargo 2017 1080p BluRay x264 DTS [MW] Full Movie, Fmovies, 123Movies, Putlocker, Netflix, etc.

Comments (0 Comments)




Please login or create a FREE account to post comments

Latest Searches