Verified torrent Black Wake 2018 720p WEB-DL DD 5.1 x264 [MW]


    Seeders : 0      Leechers : 0

Hash :85E383FD19DB3EEA7C59E89C5DD1A5D1F47A616D
Added :5 days ago by MovieFreakVerified torrent uploader in Movies
Size :970.07 MB
Stream :Watch Full Movie Online @ Movie4u
Share :


Black Wake 2018 720p WEB-DL DD 5.1 x264 [MW]
Download Direct And Anonymously







Warning! Do not Download Torrents Without a VPN!
Your IP Address is 185.81.128.184.   And Location is Latvia,
Your Internet Provider and Government can track your torrent Activity!  Hide your IP ADDRESS with a VPN!
We Strongly Recommend Using Best Cheapest VPN to Anonymize your Torrenting.

Note :

Please Update (Trackers Info) Before Start Torrents Downloading to See Updated Seeders And Leechers for Batter Download Speed.

Trackers List

Tracker NameLast CheckStatusSeedersLeechers




Torrent File Content (1 file)


Black Wake 2018 720p WEB-DL DD 5.1 x264 [MW]
     Black Wake 2018 720p WEB-DL DD 5.1 x264 [MW].mkv -
970.07 MB



Description




[url=http://pichub.site/image/EO6Xh]
http://pichub.site/images/2018/09/14/black.md.jpg
[/url]


General
Format : Matroska
Format version : Version 4 / Version 2
File size : 970 MiB
Duration : 1 h 31 min
Overall bit rate : 1 486 kb/s

Video
ID : 1
Format : AVC
Format/Info : Advanced Video Codec
Format profile : [email protected]
Format settings : CABAC / 4 Ref Frames
Format settings, CABAC : Yes
Format settings, RefFrames : 4 frames
Codec ID : V_MPEG4/ISO/AVC
Duration : 1 h 31 min
Bit rate : 1 100 kb/s
Width : 1 278 pixels
Height : 720 pixels
Display aspect ratio : 16:9
Frame rate mode : Constant
Frame rate : 23.976 (24000/1001) FPS
Color space : YUV
Chroma subsampling : 4:2:0
Bit depth : 8 bits
Scan type : Progressive
Bits/(Pixel*Frame) : 0.050
Stream size : 718 MiB (74%)
Writing library : x264 core 155 r2901 7d0ff22
Default : Yes
Forced : No

Audio
ID : 2
Format : AC-3
Format/Info : Audio Coding 3
Codec ID : A_AC3
Duration : 1 h 31 min
Bit rate mode : Constant
Bit rate : 384 kb/s
Channel(s) : 6 channels
Channel positions : Front: L C R, Side: L R, LFE
Sampling rate : 48.0 kHz
Frame rate : 31.250 FPS (1536 SPF)
Bit depth : 16 bits
Compression mode : Lossy
Stream size : 251 MiB (26%)
Language : English
Service kind : Complete Main
Default : Yes
Forced : No


Click To Enlarge Image

[url=http://pichub.site/image/EOXJj]
http://pichub.site/images/2018/09/14/00_14_27.md.jpg
[/url]
[url=http://pichub.site/image/EOnir]
http://pichub.site/images/2018/09/14/00_21_41.md.jpg
[/url]
[url=http://pichub.site/image/EOspk]
http://pichub.site/images/2018/09/14/00_56_55.md.jpg
[/url]
[url=http://pichub.site/image/EO1cv]
http://pichub.site/images/2018/09/14/00_57_49.md.jpg
[/url]
[url=http://pichub.site/image/EO3bQ]
http://pichub.site/images/2018/09/14/00_05_25.md.jpg
[/url]
[url=http://pichub.site/image/EO9vd]
http://pichub.site/images/2018/09/14/00_07_13.md.jpg
[/url]


Related torrents

Torrent NameAddedSizeSeedLeechHealth
Verified torrent
3 months ago - in Movies2.09 GB00
Verified torrent
5 months ago - in Movies1.03 GB00
6 days ago - in Movies2.8 GB3172
Verified torrent
7 days ago - in Movies950.31 MB20
Verified torrent
21 days ago - in Movies887.97 MB00
Verified torrent
4 months ago - in Movies1.17 GB00

Note :

Feel free to post any comments about this torrent, including links to Subtitle, samples, screenshots, or any other relevant information. Please Dont Download anything from Comments, And Links to Streaming Sites like Watch Online Black Wake 2018 720p WEB-DL DD 5.1 x264 [MW] Full Movie, Fmovies, 123Movies, Putlocker, Netflix, etc.

Comments (0 Comments)




Please login or create a FREE account to post comments

Latest Searches