Verified torrent Any Bullet Will Do (2018) 720p HDRip x264 AAC by Full4movies


    Seeders : 1      Leechers : 0

Hash :010E65D22AB37C16383226C18C992162046375C7
Added :5 days ago by India4movieVerified torrent uploader in Movies
Size :858.31 MB
Stream :Watch Full Movie Online @ Movie4u
Share :








Warning! Do not Download Torrents Without a VPN!
Your IP Address is 185.81.128.184.   And Location is Latvia,
Your Internet Provider and Government can track your torrent Activity!  Hide your IP ADDRESS with a VPN!
We Strongly Recommend Using Best Cheapest VPN to Anonymize your Torrenting.

Note :

Please Update (Trackers Info) Before Start Torrents Downloading to See Updated Seeders And Leechers for Batter Download Speed.

Trackers List

Tracker NameLast CheckStatusSeedersLeechers
http://9.rarbg.to:2780/announce5 days agosuccess10
http://public.popcorn-tracker.org:6969/announce5 days agosuccess10




Torrent File Content (1 file)


     Any Bullet Will Do (2018) 720p HDRip x264 AAC by Full4movies.mkv -
858.31 MB



Description



http://extraimage.net/images/2018/09/14/0e94e8cc153ed8d2edbb81d49661855e.jpg


General
Complete name : Any Bullet Will Do (2018) 720p HDRip x264 AAC by Full4movies.mkv
Format : Matroska
Format version : Version 4 / Version 2
File size : 858 MiB
Duration : 1 h 46 min
Overall bit rate : 1 122 kb/s
Movie name : www.Full4movies.co
Encoded date : UTC 2018-09-13 17:40:39
Writing application : mkvmerge v8.1.0 ('Psychedelic Postcard') 32bit
Writing library : libebml v1.3.1 + libmatroska v1.4.2

Video
ID : 1
Format : AVC
Format/Info : Advanced Video Codec
Format profile : [email protected]
Format settings, CABAC : Yes
Format settings, RefFrames : 4 frames
Codec ID : V_MPEG4/ISO/AVC
Duration : 1 h 46 min
Bit rate : 1 050 kb/s
Width : 1 280 pixels
Height : 536 pixels
Display aspect ratio : 2.40:1
Frame rate mode : Variable
Frame rate : 23.976 FPS
Color space : YUV
Chroma subsampling : 4:2:0
Bit depth : 8 bits
Scan type : Progressive
Bits/(Pixel*Frame) : 0.064
Stream size : 796 MiB (93%)
Writing library : x264 core 155 r2901 7d0ff22
Default : Yes
Forced : No
Color range : Limited
Color primaries : BT.709
Transfer characteristics : BT.709
Matrix coefficients : BT.709

Audio
ID : 2
Format : AAC
Format/Info : Advanced Audio Codec
Format profile : LC
Codec ID : A_AAC
Duration : 1 h 46 min
Bit rate : 78.7 kb/s
Channel(s) : 2 channels
Channel positions : Front: L R
Sampling rate : 48.0 kHz
Frame rate : 46.875 FPS (1024 SPF)
Compression mode : Lossy
Delay relative to video : -44 ms
Stream size : 60.2 MiB (7%)
Language : English
Default : Yes
Forced : No

Screen Shoots
http://extraimage.net/images/2018/09/14/756591621461c1f239f85b04d93cd3d4.jpg

Related torrents

Torrent NameAddedSizeSeedLeechHealth
Verified torrent
2 months ago - in Movies652.6 MB20
6 days ago - in Movies3.14 GB1320
6 days ago - in Movies3.14 GB4054
2 months ago - in Movies809.61 MB43941
2 months ago - in Movies785.72 MB10
2 months ago - in Movies789.52 MB00

Note :

Feel free to post any comments about this torrent, including links to Subtitle, samples, screenshots, or any other relevant information. Please Dont Download anything from Comments, And Links to Streaming Sites like Watch Online Any Bullet Will Do (2018) 720p HDRip x264 AAC by Full4movies Full Movie, Fmovies, 123Movies, Putlocker, Netflix, etc.

Comments (0 Comments)




Please login or create a FREE account to post comments

Latest Searches