Verified torrent Alien Siege 2018 1080p BluRay x264 DTS [MW]


    Seeders : 0      Leechers : 0

Hash :729741D112FD72862089A9440BE1D47F4F2D58CF
Added :4 days ago by MovieFreakVerified torrent uploader in Movies
Size :2.2 GB
Stream :Watch Full Movie Online @ Movie4u
Share :


Alien Siege 2018 1080p BluRay x264 DTS [MW]
Download Direct And Anonymously







Warning! Do not Download Torrents Without a VPN!
Your IP Address is 185.81.128.184.   And Location is Latvia,
Your Internet Provider and Government can track your torrent Activity!  Hide your IP ADDRESS with a VPN!
We Strongly Recommend Using Best Cheapest VPN to Anonymize your Torrenting.

Note :

Please Update (Trackers Info) Before Start Torrents Downloading to See Updated Seeders And Leechers for Batter Download Speed.

Trackers List

Tracker NameLast CheckStatusSeedersLeechers




Torrent File Content (1 file)


Alien Siege 2018 1080p BluRay x264 DTS [MW]
     Alien Siege 2018 1080p BluRay x264 DTS [MW].mkv -
2.2 GB



Description





[url=http://pichub.site/image/EOV1u]
http://pichub.site/images/2018/09/14/alien.md.jpg
[/url]

General
Format : Matroska
Format version : Version 4 / Version 2
File size : 2.20 GiB
Duration : 1 h 25 min
Overall bit rate : 3 691 kb/s

Video
ID : 1
Format : AVC
Format/Info : Advanced Video Codec
Format profile : [email protected]
Format settings : CABAC / 4 Ref Frames
Format settings, CABAC : Yes
Format settings, RefFrames : 4 frames
Codec ID : V_MPEG4/ISO/AVC
Duration : 1 h 25 min
Bit rate : 3 000 kb/s
Width : 1 920 pixels
Height : 1 080 pixels
Display aspect ratio : 16:9
Frame rate mode : Constant
Frame rate : 23.976 (24000/1001) FPS
Color space : YUV
Chroma subsampling : 4:2:0
Bit depth : 8 bits
Scan type : Progressive
Bits/(Pixel*Frame) : 0.060
Stream size : 1.75 GiB (79%)
Writing library : x264 core 155 r2901 7d0ff22
Default : Yes
Forced : No

Audio
ID : 2
Format : DTS
Format/Info : Digital Theater Systems
Codec ID : A_DTS
Duration : 1 h 25 min
Bit rate mode : Constant
Bit rate : 756 kb/s
Channel(s) : 6 channels
Channel positions : Front: L C R, Side: L R, LFE
Sampling rate : 48.0 kHz
Frame rate : 93.750 FPS (512 SPF)
Bit depth : 16 bits
Compression mode : Lossy
Stream size : 462 MiB (20%)
Language : English
Default : Yes
Forced : No

Menu
00:00:00.000 : en:00:00:00.000
00:10:00.600 : en:00:10:00.600
00:20:01.200 : en:00:20:01.200
00:30:01.800 : en:00:30:01.800
00:40:02.400 : en:00:40:02.400
00:50:03.000 : en:00:50:03.000
01:00:03.600 : en:01:00:03.600
01:10:04.200 : en:01:10:04.200
01:20:04.800 : en:01:20:04.800


Click To Enlarge Image

[url=http://pichub.site/image/EOkRR]
http://pichub.site/images/2018/09/14/00_02_07.md.jpg
[/url]
[url=http://pichub.site/image/EOwBs]
http://pichub.site/images/2018/09/14/00_07_17.md.jpg
[/url]
[url=http://pichub.site/image/EOyPB]
http://pichub.site/images/2018/09/14/00_12_42.md.jpg
[/url]
[url=http://pichub.site/image/EOhJY]
http://pichub.site/images/2018/09/14/00_21_17.md.jpg
[/url]
[url=http://pichub.site/image/EOih6]
http://pichub.site/images/2018/09/14/00_50_49.md.jpg
[/url]
[url=http://pichub.site/image/EOtot]
http://pichub.site/images/2018/09/14/01_20_52.md.jpg
[/url]


Related torrents

Torrent NameAddedSizeSeedLeechHealth
8 days ago - in Movies6.64 GB614
8 days ago - in Movies6.64 GB1137
2 months ago - in Movies2 GB186
Verified torrent
2 months ago - in Movies2.85 GB10621
Verified torrent
2 months ago - in Movies2.44 GB85
Verified torrent
2 months ago - in Movies2.65 GB52

Note :

Feel free to post any comments about this torrent, including links to Subtitle, samples, screenshots, or any other relevant information. Please Dont Download anything from Comments, And Links to Streaming Sites like Watch Online Alien Siege 2018 1080p BluRay x264 DTS [MW] Full Movie, Fmovies, 123Movies, Putlocker, Netflix, etc.

Comments (0 Comments)




Please login or create a FREE account to post comments

Latest Searches